#TITLE:Burnin' Noumander;
#SUBTITLE:Megaman X;
#ARTIST:Ymaru;
#TITLETRANSLIT:;
#SUBTITLETRANSLIT:;
#ARTISTTRANSLIT:;
#CREDIT:;
#BANNER:Burnin' Noumander.PNG;
#BACKGROUND:Burnin' Noumander-bg.PNG;
#LYRICSPATH:;
#CDTITLE:cdtitle.png;
#MUSIC:Burnin' Noumander.mp3;
#OFFSET:-0.203;
#SAMPLESTART:54.600;
#SAMPLELENGTH:14.000;
#SELECTABLE:YES;
#BPMS:0.000=180.100,292.000=90.050,308.000=180.100;
#STOPS:;
#BGCHANGES:;
// cache tags:
#FIRSTBEAT:3.500;
#LASTBEAT:424.000;
#SONGFILENAME:Songs/Music V.I.P ^_^/Burnin' Noumander (Zaghurim)/Burnin' Noumander.sm;
#HASMUSIC:1;
#HASBANNER:1;
#MUSICLENGTH:146.946;
// end cache tags

//---------------dance-single - ----------------
#NOTES:
     dance-single:
     :
     Hard:
     12:
     1.000,1.000,1.000,0.027,0.718,868.000,279.000,4.000,0.000,0.000:
0000
0000
0000
0000
0000
0000
0000
0000
0000
0000
0000
0000
0000
0000
1000
0010
,
1100
0000
1001
1010
0011
1010
1100
1001
,
0000
0000
0000
0000
0000
0000
0000
0000
0000
0000
1001
0000
0000
0110
0000
0000
,
1001
0000
1001
1010
0011
0110
1100
1001
,
0000
0000
0000
0000
0000
0000
0000
0000
1000
0001
0100
0010
1000
0001
0010
0100
,
1001
0000
0110
1100
1010
1100
0101
0110
,
0000
0000
0000
0000
0000
0000
0000
0000
0000
0000
0000
0000
0000
0000
0001
0010
,
0101
0000
0110
1100
1010
1001
0101
0110
,
0000
0000
1100
0000
0000
0000
0000
0000
0000
0000
0000
0000
0000
0000
1000
0100
,
1010
0000
0110
0011
0101
0011
1010
0110
,
0000
0000
0000
0000
0000
0000
0000
0000
0000
0000
0000
0000
0000
0000
0010
0001
,
0110
0000
0110
0011
0101
1001
1010
0110
,
0001
0000
1100
0000
0000
0000
0001
0000
1100
0000
0000
0001
0100
0000
0010
1000
,
0011
0100
0010
1000
0001
0100
0010
1000
,
0100
0000
1001
0000
0100
0000
1010
0000
0101
0000
0000
0101
0000
0000
0110
0000
,
1010
0000
0100
0000
0010
0000
1001
0000
0100
0000
0010
0000
1000
0100
0010
0001
,
0000
0000
0101
0010
0100
0000
0110
0000
1001
0000
0001
0100
0010
1000
0010
0100
,
1010
0001
1000
0100
0010
0001
1000
0100
,
0001
0000
0110
0000
0001
0000
1100
0000
0011
0000
0000
0011
0000
0000
1001
0000
,
1100
0000
0001
0000
1000
0000
0110
0000
0001
0000
1000
0000
0100
0001
1000
0010
,
0000
0000
0110
1000
0001
0000
1001
0000
0110
0000
1000
0001
0100
0001
1000
0001
,
1100
0001
1000
0100
0010
0001
1000
0100
,
0001
0000
0110
0000
0001
0000
1100
0000
0011
0000
0000
0011
0000
0000
1001
0000
,
1100
0000
0001
0000
1000
0000
0110
0000
1000
0000
0010
0000
0100
0010
1000
0001
,
0000
0000
0011
0100
0001
0000
1001
0000
0110
0000
1000
0001
1000
0010
1000
0001
,
1100
0010
0100
0001
1000
0010
0100
0001
,
0010
0000
1001
0000
0010
0000
0101
0000
1010
0000
0000
1010
0000
0000
0110
0000
,
0101
0000
0010
0000
0100
0000
1001
0000
0010
0000
0100
0000
0001
0010
0100
1000
,
0000
0000
1001
0100
0010
0000
0110
0000
1001
0000
1000
0100
0010
0001
0100
0010
,
1001
0100
0010
1000
0100
0010
0100
1000
,
0001
0010
0100
1000
0001
0100
0010
1000
,
0001
0010
0100
0001
0010
0100
0010
1100
,
0011
0000
0000
0110
0000
0000
1100
0000
0000
0000
0000
0000
0001
0010
0100
1000
,
0001
0100
0010
1000
0001
0100
0010
1000
,
0001
0100
0010
1000
0001
0100
0010
1000
,
0001
0100
0010
1000
0010
0100
0001
1000
,
0001
0100
0010
1000
0001
0100
0010
1000
0001
0000
1000
0000
0010
0000
0100
0010
,
1001
0000
0110
1100
1010
1100
0101
0110
,
0000
0000
0000
0000
0000
0000
0000
0000
0000
0000
0110
0000
0000
1001
0000
0000
,
0110
0000
0110
1100
1010
1001
0101
0110
,
0000
0000
0000
0000
0000
0000
0000
0000
1000
0100
0010
0001
1000
0010
0100
0001
,
0110
0000
1001
0101
1100
0101
0011
1001
,
0000
0000
0000
0000
0000
0000
0000
0000
0000
0000
0000
0000
0000
0000
0010
1000
,
0011
0000
1001
0101
1100
0110
0011
1001
,
0000
0000
0101
0000
0000
0000
0000
0000
0000
0000
0000
0000
0000
0000
0100
0001
,
1100
0000
1001
1010
0011
1010
1100
1001
,
0000
0000
0000
0000
0000
0000
0000
0000
0000
0000
0000
0000
0000
0000
1000
0010
,
1001
0000
1001
1010
0011
0110
1100
1001
,
0010
0000
0101
0000
0000
0000
0010
0000
0101
0000
0000
1000
0001
0000
1000
0001
,
1100
0001
1000
0100
0010
0001
1000
0100
,
0001
0000
0110
0000
0001
0000
1100
0000
0011
0000
0000
0011
0000
0000
1001
0000
,
1100
0000
0001
0000
1000
0000
0110
0000
0001
0000
0100
0000
1000
0010
1000
0001
,
0000
0000
1001
0100
0010
0000
1001
0000
0110
0000
1000
0010
1000
0001
1000
0010
,
1100
0010
0100
0001
1000
0010
0100
0001
,
0010
0000
1001
0000
0010
0000
0101
0000
1010
0000
0000
1010
0000
0000
0110
0000
,
0101
0000
0010
0000
0100
0000
1001
0000
0010
0000
0100
0000
0001
0010
0100
1000
,
0000
0000
1001
0100
0010
0000
0110
0000
1001
0000
0100
0010
1000
0010
0100
0010
,
0101
0010
0100
0001
1000
0010
0100
0001
,
0010
0000
1001
0000
0010
0000
0101
0000
1010
0000
0000
1010
0000
0000
0110
0000
,
0101
0000
0010
0000
0100
0000
1001
0000
0100
0000
1000
0000
1000
0100
0010
0001
,
0000
0000
1010
0100
0010
0000
0110
0000
1001
0000
0001
0010
0100
1000
0100
0010
,
0101
1000
0001
0010
0100
1000
0001
0010
,
1000
0000
0110
0000
1000
0000
0011
0000
1100
0000
0000
1100
0000
0000
1001
0000
,
0011
0000
1000
0000
0001
0000
0110
0000
1000
0000
0001
0000
1000
0001
1000
0010
,
0000
0000
0101
0010
0100
0000
1001
0000
0110
0000
0001
0100
0010
1000
0010
0100
,
1010
0100
1000
0010
0100
1000
0010
0100
,
1000
0000
0010
0000
0100
0000
0010
0100
0001
0000
0001
0100
0001
0010
0100
1000
,
0001
0000
0000
0000
0000
0000
1000
0100
0010
0000
0100
0000
0000
0000
1000
0000
,
0001
0100
0010
1000
0000
1000
0100
0010
,
0001
0000
0000
0000
0000
0000
0001
1000
0010
0100
0001
1000
0010
0100
0001
1000
,
0001
0100
0010
1000
0001
0100
0010
1000
0001
0100
0010
1000
0001
0100
0010
1000
,
0001
0010
0100
1000
0100
0010
0001
0100
0001
0100
0001
0010
0100
1000
0010
1000
,
0010
0100
1000
0100
0010
0001
0010
0100
,
1001
1001
0000
1001
1001
0000
1001
1001
0000
1001
1001
0000
1100
1100
1010
1010
,
1001
1001
0000
1001
1001
0000
1001
1001
0000
1001
1001
0000
1010
1010
0110
0110
,
0101
0101
0000
0101
0101
0000
0101
0101
0000
0101
0101
0000
1100
1100
1001
1001
,
0110
0110
0000
0110
0110
0000
0110
0110
0000
0110
0110
0000
2000
0000
3200
0000
,
0320
0000
0000
0000
0030
0000
0001
0100
0010
1000
0010
0100
0001
0010
0100
1000
,
0001
0100
0010
1000
0001
0100
0010
1000
0010
0100
0001
1000
0001
0100
0010
1000
,
0010
0000
0100
0000
1000
0000
0100
0010
0100
0000
1000
0000
0100
0000
0010
0000
,
0001
0010
0100
1000
0010
0100
0010
1000
0100
0010
0001
0100
0010
0100
0001
1000
,
0001
0000
0010
0100
0000
0010
1000
0010
,
0000
1000
0001
0100
0000
0010
0000
0100
,
0000
0000
0001
0100
0010
0100
0001
1000
0010
0100
0001
1000
0010
1000
0010
0000
,
0000
0000
0010
0000
0001
0010
0100
1000
0010
0000
0000
0000
0100
0000
0000
0000
,
0001
0100
0010
1000
0001
0100
0010
1000
0010
0000
0100
0000
0010
0000
0001
0000
,
0010
0100
1000
0010
0000
1000
0000
0001
,
0000
0001
0010
0100
0000
1000
0100
0010
,
0000
0000
0000
0000
0000
0000
1000
0001
0100
0010
1000
0000
0001
0000
0100
0000
,
0001
1000
0001
0100
0001
1000
0001
0100
0001
0100
0010
1000
0001
0100
0010
1000
,
0010
0100
0001
1000
0010
0100
0001
1000
0001
0010
0100
1000
0001
0100
0001
0010
,
0100
1000
0001
0100
0010
0100
0001
0100
0001
0010
0100
1000
0001
0100
0010
1000
,
0010
0100
0010
1000
0100
0010
0001
1000
0010
1000
0100
0010
0001
1000
0001
0100
,
0011
0000
0011
0110
0101
0110
1010
0011
,
0000
0000
0000
0000
0000
0000
0000
0000
0000
0000
0011
0000
0000
1100
0000
0000
,
0011
0000
0011
0110
0101
1100
1010
0011
,
0000
0000
0000
0000
0000
0000
0000
0000
1000
0010
1000
0100
0010
0001
1000
0010
,
1100
0000
1100
1010
0110
1010
1001
1100
,
0000
0000
0000
0000
0000
0000
0000
0000
0000
0000
0000
0000
0000
0000
1000
0100
,
1010
0000
1100
1010
0110
0011
1001
1100
,
0000
0000
1010
0000
0000
0000
0000
0000
0000
0000
0000
0000
0000
0000
0001
0010
,
0101
0000
1100
0101
1001
0101
0110
1100
,
0000
0000
0000
0000
0000
0000
0000
0000
0000
0000
0000
0000
0000
0000
0100
0010
,
1100
0000
1100
0101
1001
0011
0110
1100
,
0001
0000
1010
0000
0000
0000
0001
0000
1010
0000
0000
0001
1000
0000
0010
0100
,
0020
0000
0000
0000
,
0030
0000
0000
0000
;

//---------------dance-single - ----------------
#NOTES:
     dance-single:
     :
     Challenge:
     13:
     1.000,1.000,1.000,0.027,0.769,955.000,498.000,4.000,0.000,2.000:
0000
0000
0000
0000
0000
0000
0000
0000
0000
0000
0000
0000
0000
0000
1000
0010
,
1100
0000
1001
1010
0011
1010
1100
1001
,
0010
0000
0000
0000
0010
0000
0000
0000
0010
0000
1001
0000
0000
0110
0000
0000
,
1001
0000
1001
1010
0011
0110
1100
1001
,
0010
0000
0000
0000
0010
0000
0000
0000
1000
0001
0100
0010
1000
0001
0010
0100
,
1001
0000
0110
1100
1010
1100
0101
0110
,
1001
0000
0000
0000
0110
0000
0000
0000
1001
0000
0000
0000
0110
0000
0001
0010
,
0101
0000
0110
1100
1010
1001
0101
0110
,
0000
0000
1100
0000
0011
0000
0000
0000
1100
0000
0000
0000
0011
0000
1000
0100
,
1010
0000
0110
0011
0101
0011
1010
0110
,
1010
0000
0000
0000
0101
0000
0000
0000
1010
0000
0000
0000
0101
0000
0010
0001
,
0110
0000
0110
0011
0101
1001
1010
0110
,
0001
0000
1100
0000
0000
0000
0001
0000
1100
0000
0000
0001
0100
0000
0010
1000
,
0011
0000
0100
0000
0101
0000
1000
0000
0001
0000
0100
1000
0110
0000
1000
0000
,
0100
0000
1001
0000
0110
0000
1010
0000
0101
0000
0010
0100
1010
0000
0110
0000
,
1010
0000
0100
0000
0110
0000
1001
0000
0100
0000
0010
0000
1000
0100
0010
0001
,
0000
0000
1001
0010
0101
0000
0110
0000
1001
0000
0011
0100
1010
0100
0011
0100
,
1010
0000
0001
0000
1010
0000
0100
0000
0010
0000
0001
0100
0011
0000
0100
0000
,
0001
0000
0110
0000
1001
0000
1100
0000
0011
0000
1000
0001
0110
0000
1001
0000
,
1100
0000
0001
0000
1001
0000
0110
0000
0001
0000
1000
0001
0100
0001
1000
0010
,
0000
0000
1001
0010
0101
0000
1001
0000
0110
0000
1001
0010
1001
0100
1001
0010
,
1100
0000
0001
0000
1001
0000
0100
0000
0010
0000
0001
0010
1100
0000
0100
0000
,
0001
0000
0110
0000
1001
0000
1100
0000
0011
0000
0100
0010
1100
0000
1001
0000
,
1100
0000
0001
0000
1001
0000
0110
0000
1000
0000
0010
0000
0100
0010
1000
0001
,
0000
0000
0011
0100
1001
0000
0101
0000
0110
0000
1010
0100
1001
0010
1001
0010
,
1100
0000
0010
0000
0101
0000
0001
0000
1000
0000
0010
0001
0110
0000
0001
0000
,
0010
0000
1001
0000
0110
0000
0101
0000
1010
0000
0001
1000
0011
0000
0110
0000
,
0101
0000
0010
0000
0101
0000
1001
0000
0010
0000
0100
0000
0001
0010
0100
1000
,
0000
0000
1001
0100
1010
0000
0110
0000
0101
0000
1001
0100
1010
0001
1100
0010
,
0101
0110
1010
0101
0110
1010
0101
0110
,
1010
0011
0110
1100
0011
0110
1100
0110
,
1001
0110
1001
0101
1010
0101
0110
1100
,
0011
0000
0000
0110
0000
0000
1100
0000
0000
0000
0100
0010
1001
0010
0100
1000
,
0011
0110
1100
0011
0110
1100
0011
0110
,
1100
0011
0110
1100
0011
0110
1100
0011
,
0110
1100
0110
1001
0110
1100
0011
1010
,
1001
0100
0010
1100
0001
0100
0011
1000
0001
0000
1000
0000
0010
0000
0100
0010
,
1001
0000
0110
1100
1010
1100
0101
0110
,
1000
0000
0000
0000
1000
0000
0000
0000
1000
0000
0110
0000
0000
1001
0000
0000
,
0110
0000
0110
1100
1010
1001
0101
0110
,
0001
0000
0000
0000
0001
0000
0000
0000
1000
0100
0010
0001
1000
0010
0100
0001
,
0110
0000
1001
0101
1100
0101
0011
1001
,
0110
0000
0000
0000
1001
0000
0000
0000
0110
0000
0000
0000
1001
0000
0010
1000
,
0011
0000
1001
0101
1100
0110
0011
1001
,
0000
0000
0101
0000
1010
0000
0000
0000
0101
0000
0000
0000
1001
0000
0100
0001
,
1100
0000
1001
1010
0011
1010
1100
1001
,
1010
0000
0000
0000
0101
0000
0000
0000
1010
0000
0000
0000
0101
0000
1000
0010
,
1100
0000
1001
1010
0011
0110
1100
1001
,
0010
0000
0101
0000
0000
0000
0010
0000
0101
0000
0000
1000
0001
0000
1000
0001
,
1100
0000
0010
0000
1010
0000
0100
0000
1000
0000
0010
0100
0011
0000
0100
0000
,
0010
0000
1100
0000
0011
0000
0101
0000
1010
0000
0001
0010
0101
0000
0011
0000
,
0101
0000
0010
0000
0011
0000
1100
0000
0010
0000
0001
0000
1000
0100
0010
0001
,
0000
0000
1100
0001
1010
0000
0011
0000
1100
0000
1001
0010
0101
0010
1001
0010
,
0101
0000
1000
0000
0101
0000
0010
0000
0001
0000
0100
0010
1001
0000
0010
0000
,
1000
0000
0011
0000
1100
0000
0110
0000
1001
0000
0001
1000
0011
0000
1100
0000
,
0110
0000
1000
0000
1100
0000
0011
0000
1000
0000
0001
1000
0010
1000
0001
0100
,
0000
0000
1100
0001
1010
0000
1100
0000
0011
0000
1100
0001
1100
0010
1100
0001
,
0110
0000
1000
0000
1100
0000
0100
0000
0010
0000
0001
0010
1100
0000
0100
0000
,
0001
0000
0110
0000
1001
0000
1100
0000
0011
0000
0100
0010
1100
0000
1001
0000
,
1100
0000
0001
0000
1001
0000
0110
0000
1000
0000
0010
0000
0100
0010
1000
0001
,
0000
0000
0011
0100
1001
0000
0101
0000
0110
0000
1010
0100
1001
0010
1001
0010
,
1100
0000
0010
0000
0101
0000
0001
0000
1000
0000
0010
0001
0110
0000
0001
0000
,
0010
0000
1001
0000
0110
0000
0101
0000
1010
0000
0001
1000
0011
0000
0110
0000
,
0101
0000
0010
0000
0101
0000
1001
0000
0010
0000
0100
0000
0001
0010
0100
1000
,
0000
0000
1001
0100
1010
0000
0110
0000
0101
0000
1001
0100
1010
0001
1100
0010
,
0101
0110
1010
0101
0110
1010
0101
0110
,
1010
0000
0101
0000
0110
0000
0010
0100
0001
0000
0001
0100
0001
0010
0100
1000
,
0001
0000
0001
0000
0011
0000
1000
0100
0010
0000
0101
0000
0000
0000
1000
0000
,
1001
0100
0010
1001
0000
1001
1100
1100
,
1001
0000
0100
0000
0110
0000
0001
1000
0010
0100
0001
1000
0011
0100
0001
1000
,
0001
0100
0010
1000
0011
0100
0010
1000
0001
0100
0010
1000
0011
0100
0010
1000
,
0101
0010
0100
1000
0101
0010
0001
0100
1001
0100
0001
0010
0101
1000
0010
1000
,
0011
1000
1001
0001
0101
0100
0110
0010
,
1010
1001
0000
1001
1001
0000
1001
1001
0000
1001
1001
0000
1100
1100
1010
1010
,
1001
1001
0000
1001
1001
0000
1001
1001
0000
1001
1001
0000
1010
1010
0110
0110
,
0101
0101
0000
0101
0101
0000
0101
0101
0000
0101
0101
0000
1100
1100
1001
1001
,
0110
0000
0110
0000
0000
0000
0110
0000
0110
0000
0000
0000
0110
0000
0110
0000
0000
0000
0110
0000
1001
0000
0010
0000
0201
0000
0010
0000
2301
0010
0000
0100
,
3021
0000
0000
0000
0030
0000
0001
0100
0010
1000
0010
0100
1001
0010
0100
1000
,
0001
0100
0010
1000
0011
0100
0010
1000
0010
0100
0001
1000
0011
0100
0010
1000
,
0010
0000
0100
0000
1001
0000
0100
0010
0100
0000
1000
0000
0101
0000
0010
0000
,
0001
0010
0100
1000
0011
0100
0010
1000
0100
0010
0001
0100
1010
0100
0001
1000
,
0001
0000
1010
0100
0000
0010
1001
0010
,
0000
1000
0011
0100
0000
0010
1001
0100
,
0000
0000
0001
0100
1010
0100
0001
1000
0010
0100
0001
1000
0110
1000
0010
0000
,
0000
0000
0010
0000
1001
0010
0100
1000
0011
0000
0000
0000
1001
0000
0000
0000
,
0011
0100
0010
1000
0011
0100
0010
1000
0010
0000
0100
0000
1010
0000
0001
0000
,
0010
0100
1001
0010
0000
1000
0110
0001
,
0000
0001
1010
0100
0000
1000
0101
0010
,
0000
0000
0000
0000
0110
0000
1000
0001
0100
0010
1000
0000
0011
0000
0100
0000
,
0001
1000
0001
0100
0011
1000
0001
0100
0001
0100
0010
1000
0011
0100
0010
1000
,
0010
0100
0001
1000
0011
0100
0001
1000
0001
0010
0100
1000
0011
0100
0001
0010
,
0100
1000
0001
0100
1010
0100
0001
0100
0001
0010
0100
1000
0011
0100
0010
1000
,
0010
0100
0010
1000
0101
0010
0001
1000
0101
1000
0100
0010
0101
1000
0001
0100
,
0011
0000
0011
0110
0101
0110
1010
0011
,
1001
0000
0000
0000
1001
0000
0000
0000
1001
0000
0011
0000
0000
1100
0000
0000
,
0011
0000
0011
0110
0101
1100
1010
0011
,
1001
0000
0000
0000
1001
0000
0000
0000
1000
0010
1000
0100
0010
0001
1000
0010
,
1100
0000
1100
1010
0110
1010
1001
1100
,
1001
0000
0000
0000
0110
0000
0000
0000
1001
0000
0000
0000
0110
0000
1000
0100
,
1010
0000
1100
1010
0110
0011
1001
1100
,
0000
0000
1010
0000
0101
0000
0000
0000
1100
0000
0000
0000
0101
0000
0001
0010
,
0101
0000
1100
0101
1001
0101
0110
1100
,
1001
0000
0000
0000
1010
0000
0000
0000
1001
0000
0000
0000
1010
0000
0100
0010
,
1100
0000
1100
0101
1001
0011
0110
1100
,
0001
0000
1010
0000
0000
0000
0001
0000
1010
0000
0000
0001
1000
0000
0010
0100
,
0020
0000
0000
0000
,
0030
0000
0000
0000
;
